1. This site uses cookies. By continuing to use this site, you are agreeing to our use of cookies. Learn More.

Pimp your Gaming Videos!

Discussion in 'Games, Gaming & Game-demos' started by Stone Gargoyle, May 24, 2011.

  1. Stone Gargoyle

    Stone Gargoyle Ancient Guru

    Messages:
    5,744
    Likes Received:
    399
    GPU:
    GTX 1060 G1
  2. naike

    naike Ancient Guru

    Messages:
    2,021
    Likes Received:
    0
    GPU:
    Asus EAH5870
    That's huge, and it's not even 1080p :eek:
    I use Sony Vegas, but technically you can use any program, it's the settings that matter.
     
  3. PhazeDelta1

    PhazeDelta1 Moderator Staff Member

    Messages:
    15,618
    Likes Received:
    13
    GPU:
    EVGA 1080 FTW
  4. Stone Gargoyle

    Stone Gargoyle Ancient Guru

    Messages:
    5,744
    Likes Received:
    399
    GPU:
    GTX 1060 G1
    You checked the aspect ratio?
     
    Last edited: Jun 14, 2011

  5. Xtreme1979

    Xtreme1979 Maha Guru

    Messages:
    1,328
    Likes Received:
    26
    GPU:
    ROG Strix RTX 2070
  6. PhazeDelta1

    PhazeDelta1 Moderator Staff Member

    Messages:
    15,618
    Likes Received:
    13
    GPU:
    EVGA 1080 FTW
    yea i set it to 1280x720
     
  7. Von Dach

    Von Dach Master Guru

    Messages:
    623
    Likes Received:
    0
    GPU:
    NV560Ti @900/2394 ATI4890
    About encoding settings for YouTube

    Let's take one of my videos as example: http://www.youtube.com/watch?v=Ig1r4pSnYZM

    This is all the format YouTube will convert it to:

    [​IMG]

    The highest quality one is *(1080p_H.264-AAC).mp4

    Detailed properties of this file are:

    General
    Complete name : H:\Downloads\Battlefield_ Bad Company 2 PC Laguna Alta Conquest Gameplay 1080p HQ(1080p_H.264-AAC).mp4
    Format : MPEG-4
    Format profile : Base Media / Version 2
    Codec ID : mp42
    File size : 385 MiB
    Duration : 8mn 52s
    Overall bit rate : 6 067 Kbps
    Encoded date : UTC 2011-06-05 13:10:57
    Tagged date : UTC 2011-06-05 13:10:57
    gsst : 0
    gstd : 532505
    gssd : B4345C7A7HH1308072700273112
    gshh : o-o.preferred.bellcanada-yyz1.v12.lscache1.c.youtube.com

    Video
    ID : 1
    Format : AVC
    Format/Info : Advanced Video Codec
    Format profile : High@L4.0
    Format settings, CABAC : Yes
    Format settings, ReFrames : 1 frame
    Format settings, GOP : M=1, N=60
    Codec ID : avc1
    Codec ID/Info : Advanced Video Coding
    Duration : 8mn 52s
    Bit rate mode : Variable
    Bit rate : 5 909 Kbps
    Maximum bit rate : 16.7 Mbps
    Width : 1 920 pixels
    Height : 1 080 pixels
    Display aspect ratio : 16:9
    Frame rate mode : Variable
    Frame rate : 30.000 fps
    Minimum frame rate : 29.412 fps
    Maximum frame rate : 55.556 fps
    Color space : YUV
    Chroma subsampling : 4:2:0
    Bit depth : 8 bits
    Scan type : Progressive
    Bits/(Pixel*Frame) : 0.095
    Stream size : 375 MiB (97%)
    Tagged date : UTC 2011-06-05 13:11:03

    Audio
    ID : 2
    Format : AAC
    Format/Info : Advanced Audio Codec
    Format profile : LC
    Codec ID : 40
    Duration : 8mn 52s
    Bit rate mode : Variable
    Bit rate : 152 Kbps
    Maximum bit rate : 204 Kbps
    Channel(s) : 2 channels
    Channel positions : Front: L R
    Sampling rate : 44.1 KHz
    Compression mode : Lossy
    Stream size : 9.65 MiB (3%)
    Title : IsoMedia File Produced by Google, 5-11-2011
    Encoded date : UTC 2011-06-05 13:11:00
    Tagged date : UTC 2011-06-05 13:11:03

    So encoding before upload with settings higher than this just blow up the size of your files for nothing. Preserving max quality of your videos will go through choosing a slow processing speed, refer to my previous posts in this thread for that. I hope it will help some of you :nerd:
     
  8. PhazeDelta1

    PhazeDelta1 Moderator Staff Member

    Messages:
    15,618
    Likes Received:
    13
    GPU:
    EVGA 1080 FTW
    alright guys, i think i figured out my problem. will have videos posted later.
     
  9. Stone Gargoyle

    Stone Gargoyle Ancient Guru

    Messages:
    5,744
    Likes Received:
    399
    GPU:
    GTX 1060 G1
    Uploaded a new video showcasing my love for FarCry 2 which I'm currently replaying:

    http://youtu.be/pSfJNdq05-I

    I cannot bloody wait for FarCry 3!
     
  10. UNREAL_2004

    UNREAL_2004 Master Guru

    Messages:
    974
    Likes Received:
    0
    GPU:
    Watercooled MSI GTX 970

    GTA IV

    click to see the videos...

    [​IMG]

    [​IMG]

    [​IMG]

    [​IMG]

    [​IMG]

    [​IMG]
     

  11. Doug

    Doug Ancient Guru

    Messages:
    4,906
    Likes Received:
    0
    GPU:
    GTX 970
  12. Stone Gargoyle

    Stone Gargoyle Ancient Guru

    Messages:
    5,744
    Likes Received:
    399
    GPU:
    GTX 1060 G1
  13. DF-1

    DF-1 Maha Guru

    Messages:
    1,417
    Likes Received:
    0
    GPU:
    EVGA gtx 580
  14. Stone Gargoyle

    Stone Gargoyle Ancient Guru

    Messages:
    5,744
    Likes Received:
    399
    GPU:
    GTX 1060 G1
    I guess you guys don't have as much time to play/record stuff as I do. Regardless I'd still like to see more from you all.

    Next for me is a fun time spent with cops in Mafia 2:

    http://youtu.be/6JbwcHIZgyg

    Oh and please subscribe if you've not already and I subscribed to you! :D
     
  15. PhazeDelta1

    PhazeDelta1 Moderator Staff Member

    Messages:
    15,618
    Likes Received:
    13
    GPU:
    EVGA 1080 FTW
    still having issues encoding my vids :bang:

    i think i got it worked out for the most part, but they still look like crap.
     

  16. Stone Gargoyle

    Stone Gargoyle Ancient Guru

    Messages:
    5,744
    Likes Received:
    399
    GPU:
    GTX 1060 G1
    Can't be any worse than my bog standard videos. :D
     
  17. lancerz

    lancerz Master Guru

    Messages:
    463
    Likes Received:
    0
    GPU:
    EVGA 1GB GTX 460
    What mods did you do to make GTA IV look like that?
     
  18. BlackZero

    BlackZero Ancient Guru

    Messages:
    8,880
    Likes Received:
    467
    GPU:
    RX Vega
  19. PhazeDelta1

    PhazeDelta1 Moderator Staff Member

    Messages:
    15,618
    Likes Received:
    13
    GPU:
    EVGA 1080 FTW
  20. Stone Gargoyle

    Stone Gargoyle Ancient Guru

    Messages:
    5,744
    Likes Received:
    399
    GPU:
    GTX 1060 G1
    Likewise.

    As for GTA IV above, it's the ENB series mod at a guess.
     

Share This Page